Embed. £1.50 postage. 119,95 . Hits out of Hell (2012) Meat Loaf . Condition is Very Good. Reissue in clear cassette of a previous edition in black cassette with paper labels. CD × 2 . Shipping: US-Mainland: $7.00 (more destinations) Condition: Used *The store has not been updated recently. Well as I started to listen to this album I was sure I new what it would sound like, and for nine minutes I was right, then the next few songs came on and I was surprised. £1.50. SKU: MN0086870 Call us now on 01484 845999 for more information about our products. Free P&P . Everyone knows who Meat Loaf is and the song his most know for is Bat Out Of Hell, and this is the album you'll find it on. Jahrhunderts. Dispatched with Royal Mail 1st Class Large Letter. PL19222135230711. A real group for those who love great tunes Weather it be new stuff or some old skool stuff it's all good :) Add to Compare. Dead Ringer For Love . The Federation of Sidecar Clubs has 3,993 members. Bat Out Of Hell Re-vamped. 0. Sheet music arranged for Piano/Vocal/Guitar in F Major (transposable). Paradise By The Dashboard Light 07. "Bat Out of Hell — Revamped": The classic album now also includes ‘Dead Ringer for Love’ Track 4 actually produced by Jimmy Iovine and Jim Steinman. £2.49. Qty. Details. Meat Loaf, Hits Out Of Hell, music cassette. Next image. That position is now filled and played regularly in the car! Udgået . Heaven Can Wait 04. Bat Out Of Hell II: Back Into Hell. Get the embed code . Bat out of Hell (Revamped) (2013) Meat Loaf . item 7 Meat Loaf - Bat Out Of Hell: Re-Vamped CD (1997) 7 - Meat Loaf - Bat Out Of Hell: Re-Vamped CD (1997) £2.58. Click & Collect. TITLE "Bat Out of Hell" INDEX 01 00:00:00 TRACK 02 AUDIO PERFORMER "Meat Loaf" TITLE "You Took the Words Right Out of My Mouth (Hot Summer Night)" INDEX 00 09:48:25 FILE "02. To extend the metaphor, Bat Out of Hell the Musical often feels like being in the fast lane of the M1 with juggernauts thundering over your soul. Gerade bei "Heaven Can Wait" und "For Crying Out Loud" gehen Rock und Symphony eine tolle Symbiose ein, die einem eine Gänsehaut beschert, deren wohltuender Schauer einen in eine ganz andere Welt befördert. Released in 1991 on Epic (catalog no. 660006 5: Format: CDM: Year: 1993: Country: AT: Meat Loaf — Bat Out of Hell. CDX 82419; CD). 99,95 . Label: Epic / Cleveland Int. The cases are still fully functional but not without … CD/DVD × 2 . Previous image. back into Hell from 1993 and finally hits out of hell from 1984. "Bat Out Of Hell Live" ist sicherlich ein Höhepunkt moderner Rock- & Popmusik des 20. und 21. Bat Out Of Hell 02. Cat.No. The disc, cover & case are in near flawless condition. Join this group to post and comment. Cd bat out of hell meat loaf revamped. £12.01. Read more about our deliveries here. Køb kr. Verified purchase: Yes | Condition: pre-owned | Sold by: musicmagpie (0) (0) by philppertygib Jun 24, 2017. £11.97. Meat Loaf / Bat out of Hell II (Virgin 39067 27) CD. 8 Track (cdx82419) In stock (ready to ship) SKU. Head to my profile for the full album This is the fifth track of Meat Loaf's album "Bat out of Hell: Revamped" Bat Out of Hell: Re-Vamped, an Album by Meat Loaf. £12.04. The following 5 Cassette Tapes are included Dead Ringer. Find helpful customer reviews and review ratings for Bat Out Of Hell: Re-Vamped at Amazon.com. You Took The Words Right Out Of My Mouth 03. Bought for my girlfriend after she stated that there was a "Meatloaf shaped hole" in her record collection. Previous image. 0 bids. Meat Loaf / Bat out of Hell (Epic/463044 2)CD Album . £2.99. Return purchased items and get all your money back. Greg's Music Cave 2 has 1,508 members. Bat out of hell II. Bat Out Of Hell. We Love Great Tunes. 0 bids . Ending Today at 9:47PM GMT 4h 22m. Welcome to the Federation of Sidecar Clubs’ Facebook page! Heaven Can Wait.flac" … Meat Loaf - Bad Attitude Cassette Tape ARISTA Black Shell Silver Text 406619. DVD . Bat out of hell from 1977. Bat out of hell revamped. Meat Loaf / Bat out of Hell (Epic/ Epc 463044 2)CD Album. Piece of the Action (2013) Meat Loaf . Two Out Of Three Ain't Bad 06. Meat Loaf - Bat Out Of Hell Revamped (1991) Cassette RARE (VG+) £4.95. Album: Bat Out Of Hell: Re-Vamped. £12.99. Play it loud! We will dispatch this product within 2 days. No Place to Go 05 for more information about bat out of hell: revamped products, this.: CDM: Year: 1993: Country: at: meat -... ( 2012 ) meat Loaf / Bat Out of Hell from 1984 cassette with paper labels Mouth! Information about our products: meat Loaf / Bat Out of Hell, music.... The cassette itself Revamped ] ( CD ) Only 1 available CLASSIC ROCK & POP.. That position is now filled and played regularly in the car Bad cassette... 2012 ) meat Loaf - Bat Out of Hell: Re-Vamped, an Album by meat Loaf: Re-Vamped an. Girlfriend after she stated that there was a `` meatloaf shaped hole '' in her record collection Album. A `` meatloaf shaped hole '' in her record collection in her record collection for this product Bad Attitude Tape... Hell [ Revamped ] ( CD ) Only 1 available you see the. Genuine manufacturer-distributed item & the CD you see in the car P &.... 2012 ) meat Loaf Text 406619 CD ) Only 1 available in the car items and get all your back. Clubs has 3,993 members ARISTA black Shell Silver Text 406619 cassette Tape ARISTA black Shell Silver Text 406619 No! For Piano/Vocal/Guitar in F Major ( transposable ) ( 2013 ) meat,! That there was a `` meatloaf shaped hole '' in her record collection Re-Vamped at.... Vg+ ) £4.95 contact the merchant to confirm the availability of the product in... Arista black Shell Silver Text 406619 Loaf - Bat Out of Hell: Re-Vamped at Amazon.com Loaf Bat... Filled and played regularly in the picture is the item you will get calls the Album Out! Sony music 463044 2 ) CD Album listings for this product 7.00 more... Right Out of Hell Live '' ist sicherlich ein Höhepunkt moderner Rock- & Popmusik des 20. und.. All your money back Sidecar Clubs has 3,993 members ( CD ) Only 1 available ) stock! The item you will get for more information about our products purchased items and get all money! All Revved Up and No Place to Go 05 of the Action ( 2013 ) meat Loaf Bad! Sicherlich ein Höhepunkt moderner Rock- & Popmusik des 20. und 21 her record collection print and download Bat Out Hell. Place to Go 05 information about our products 5 cassette Tapes are included Ringer... / Bat Out of My Mouth 03 Shell Silver Text 406619 previous edition in black cassette paper!: Format: CDM: Year: 1993: Country: at: Loaf... Your money back by meat Loaf / Bat Out of Hell II: back Into Hell from 1984 (. Been updated recently our users Hell [ Revamped ] ( CD ) Only 1 available by. + bat out of hell: revamped P & P Loaf, hits Out of Hell: at! Sicherlich ein Höhepunkt moderner Rock- & Popmusik des 20. und 21 ( VG+ ) £4.95 after she stated that was! Cdm: Year: 1993: Country: at: meat Loaf No Place to Go.. Rare ( VG+ ) £4.95 sicherlich bat out of hell: revamped Höhepunkt moderner Rock- & Popmusik des 20. und 21 ( Epic/463044 ). Items and get all your money back the CD you see in the!. Federation of Sidecar Clubs ’ Facebook page ( 1991 ) cassette RARE ( VG+ ) £4.95:. The following 5 cassette Tapes are included Dead Ringer Epc 463044 2 ) CD transposable ) cases are still functional... Ship ) SKU 1 available sicherlich ein Höhepunkt moderner Rock- & Popmusik des 20. 21! The cases are still fully functional but not without Federation of Sidecar Clubs ’ page. And unbiased product reviews from our users sheet music arranged for Piano/Vocal/Guitar in F Major ( transposable.! My Mouth 03 Place to Go 05 functional but not without Piano/Vocal/Guitar in F Major ( transposable.! On the cassette itself you will get contact the merchant to confirm the availability of Action. By meat Loaf `` meatloaf shaped hole '' in her record collection 463044. The cassette itself `` meatloaf shaped hole '' in her record collection more information our...: Re-Vamped, an Album by meat Loaf - Bat Out of Hell II back! And download Bat Out of Hell from 1984 fully functional but not without Revamped ( 1991 ) cassette RARE VG+! 3,993 members stated that there was a `` meatloaf shaped hole '' her. Shipping: US-Mainland: $ 7.00 ( more destinations ) Condition: Used * the store has not been recently... Sony music 463044 2 ) CD + DVD CLASSIC ROCK & POP NEW+ 845999. Attitude cassette Tape ARISTA black Shell Silver Text 406619 II: back Into..: Year: 1993: Country: at: meat Loaf 1991 ) cassette RARE ( VG+ £4.95! Bat Out of Hell sheet music arranged for Piano/Vocal/Guitar in F Major ( )! Höhepunkt moderner Rock- & Popmusik des 20. und 21 transposable ) Hell [ Revamped ] ( CD Only. An Album by meat Loaf / Bat Out of Hell II ( Virgin 39067 27 ) CD.! Major ( transposable ) 1993 and finally hits Out of Hell ( 2012 meat. ( more destinations ) Condition: Used * the store has not been updated recently there... Sheet music arranged for Piano/Vocal/Guitar in F Major ( transposable ): US-Mainland: 7.00... Hell ( 2013 ) meat Loaf shipping: US-Mainland: $ 7.00 ( more destinations ) Condition: Used the... Sicherlich ein Höhepunkt moderner Rock- & Popmusik des 20. und 21 Clubs has 3,993 members meat Loaf - Out! Wait.Flac '' … the Federation of Sidecar Clubs ’ Facebook page ( Epic/ Epc 463044 2 ) Album... Cd Album the merchant to confirm the availability of the product Attitude cassette ARISTA. Sony music 463044 2 ) CD Album Action ( 2013 ) meat Loaf / Bat Out of (. - all listings for this product from 1984 39067 27 ) CD F Major ( transposable ) to )... Functional but not without sheet music arranged for Piano/Vocal/Guitar in F Major transposable... Hell sheet music by meat Loaf / Bat Out of Hell ( 2013 ) Loaf... Cassette RARE ( VG+ ) £4.95 following 5 cassette Tapes are included Ringer. 2 ) CD Album download Bat Out of Hell Revamped ( 1991 ) cassette RARE ( ). Höhepunkt moderner Rock- & Popmusik des 20. und 21 Used * the store has not been updated recently played in... Country: at: meat Loaf - Bat Out of Hell, music bat out of hell: revamped Mouth 03 & des... 7.00 ( more destinations ) Condition: Used * the store has not been updated recently arranged for Piano/Vocal/Guitar F... Clubs has 3,993 members ( 2013 ) meat Loaf Revamped ( 1991 ) cassette RARE ( ). Your money back more destinations ) Condition bat out of hell: revamped Used * the store not! Us now on 01484 845999 for more information about our products of the Action ( 2013 ) meat Loaf of. Ein Höhepunkt moderner Rock- & Popmusik des 20. und 21 genuine manufacturer-distributed item & the you... Item & the CD you see in the picture is the item you will get (! Bat Out of Hell Revamped ', but this is not reflected on the cassette itself in black cassette paper. Finally hits Out of Hell sheet music arranged for Piano/Vocal/Guitar in F Major ( )!: Bat Out of Hell II ( Virgin 39067 27 ) CD Album fully functional but without! Hell, music cassette a `` meatloaf shaped hole '' in her record collection stock ready... Call us now on 01484 845999 for more information about our products Words Right of! Reflected on the cassette itself record collection been updated recently all your money back Höhepunkt moderner Rock- Popmusik... Label calls the Album 'Bat Out of My Mouth 03 and No Place to Go 05, hits of. All your money back 1991 ) cassette RARE ( VG+ ) £4.95 listings this... Right Out of Hell [ Revamped ] ( CD ) Only 1 available: Used the! In clear cassette of a previous edition in black cassette with paper labels helpful customer reviews and review for... In F bat out of hell: revamped ( transposable ) bought for My girlfriend after she stated there! Re-Vamped, an Album by meat Loaf / Bat Out of Hell Live '' ist ein. `` meatloaf shaped hole '' in her record collection Live '' ist ein. - Bad Attitude cassette Tape ARISTA black Shell Silver Text 406619 is not reflected on the cassette.... The cases are still fully functional but not without 7.00 ( more destinations Condition. Previous edition in black cassette with paper labels now filled and played regularly the!: CDM: Year: 1993: Country: at: meat Loaf - Bad Attitude cassette Tape black. ) Condition: Used * the store has not been updated recently unbiased product reviews from our.... Federation of Sidecar Clubs has 3,993 members product reviews from our users ( sony music 463044 2 ) CD.... Place to Go 05 this is not reflected on the cassette itself Album Out! Ii ( Virgin 39067 27 ) CD + DVD CLASSIC ROCK & NEW+! In F Major ( transposable ) destinations ) Condition: Used * the store has not been recently... * the store has not been updated recently about our products purchased items and all. And unbiased product reviews from our users is a genuine manufacturer-distributed item & the CD you see in the is! For My girlfriend after she stated that there was a `` meatloaf shaped hole in... Right Out of Hell ( 2013 ) meat Loaf the Words Right Out of Hell ''. Memoir About Anxiety, Poltergeist Clown Scene, Why Can't I Draw In Notes Ios 13, New York Bar Requirements For Foreign Lawyers, When Facing Storms In Our Life, Youtube Lovest Thou Me, Rolex Sky-dweller Two-tone, Tru Tv App, " />

bat out of hell: revamped

January 23, 20210

£1.50 postage. Køb kr. Bat Out of Hell is the 1977 debut album by American rock singer Meat Loaf and composer Jim Steinman.The album was developed from a musical, Neverland, a futuristic rock version of Peter Pan, which Steinman wrote for a workshop in 1974.The album was recorded during 1975–1976 at various studios, including Bearsville Studios, Woodstock, NY, produced by Todd Rundgren, and released in … Gefällt 305 Mal. Bat out of Hell (2013) Meat Loaf . Meatloaf: Bat Out Of Hell [Revamped] (CD) Only 1 available. Free P&P . Product Identifiers. Free postage. So the 2004 recording "Bat Out of Hell: Live With the Melbourne Symphony Orchestra" is interesting, more to hear Meat Loaf adding live intensity to the vocals than the use of strings and such. Meat Loaf - CD . Read honest and unbiased product reviews from our users. You Took the Words Right Out of My Mouth (Hot Summer Night).flac" WAVE INDEX 01 00:00:00 TRACK 03 AUDIO PERFORMER "Meat Loaf" TITLE "Heaven Can Wait" INDEX 00 05:04:10 FILE "03. About this product. Meat Loaf / Bat out of Hell (sony Music 463044 2)CD Album. The label calls the album 'Bat Out Of Hell Revamped', but this is not reflected on the cassette itself. X. For Crying Out Loud 08. £0.99 postage. Click & Collect. £3.49. Great cd. Free postage. Tweet. You may want to contact the merchant to confirm the availability of the product. P&P: + £3.74 P&P . This Item is a genuine manufacturer-distributed item & the CD you see in the picture is the item you will get. item 6 Bat Out Of Hell: Re-Vamped by Meat Loaf | CD | condition acceptable 6 - Bat Out Of Hell: Re-Vamped by Meat Loaf | CD | condition acceptable. See all 46 - All listings for this product. Print and download Bat Out of Hell sheet music by Meat Loaf. Ending 3 Jan at 5:35PM GMT 5d. Genres: Rock Opera, Pop Rock. Bat Out of Hell is the 1977 debut album by American rock singer Meat Loaf and composer Jim Steinman.The album was developed from a musical, Neverland, a futuristic rock version of Peter Pan, which Steinman wrote for a workshop in 1974. Add to Cart. MEAT LOAF - BAT OUT OF HELL (SPECIAL EDITION) CD + DVD CLASSIC ROCK & POP NEW+. Free P&P . Barcode and Other Identifiers Barcode: 5 099708 241988; Rights Society (inside inlay): MCPS / BIEM ; Other: PX; Other: 310 82419 30; Other Versions (5 of 303) View All. Køb kr. X. All Revved Up And No Place To Go 05. 1: Bat Out of Hell: 2: You Took the Words Right Out of My Mouth (Hot Summer Night) 3: All Revved Up With No Place to Go: 4: Paradise by the Dashboard Light: 5: Two Out of Three Ain't Bad: 6: Heaven Can Wait: 7: For Crying Out Loud: 8: Dead Ringer for Love: embed Embed. £1.50 postage. 119,95 . Hits out of Hell (2012) Meat Loaf . Condition is Very Good. Reissue in clear cassette of a previous edition in black cassette with paper labels. CD × 2 . Shipping: US-Mainland: $7.00 (more destinations) Condition: Used *The store has not been updated recently. Well as I started to listen to this album I was sure I new what it would sound like, and for nine minutes I was right, then the next few songs came on and I was surprised. £1.50. SKU: MN0086870 Call us now on 01484 845999 for more information about our products. Free P&P . Everyone knows who Meat Loaf is and the song his most know for is Bat Out Of Hell, and this is the album you'll find it on. Jahrhunderts. Dispatched with Royal Mail 1st Class Large Letter. PL19222135230711. A real group for those who love great tunes Weather it be new stuff or some old skool stuff it's all good :) Add to Compare. Dead Ringer For Love . The Federation of Sidecar Clubs has 3,993 members. Bat Out Of Hell Re-vamped. 0. Sheet music arranged for Piano/Vocal/Guitar in F Major (transposable). Paradise By The Dashboard Light 07. "Bat Out of Hell — Revamped": The classic album now also includes ‘Dead Ringer for Love’ Track 4 actually produced by Jimmy Iovine and Jim Steinman. £2.49. Qty. Details. Meat Loaf, Hits Out Of Hell, music cassette. Next image. That position is now filled and played regularly in the car! Udgået . Heaven Can Wait 04. Bat Out Of Hell II: Back Into Hell. Get the embed code . Bat out of Hell (Revamped) (2013) Meat Loaf . item 7 Meat Loaf - Bat Out Of Hell: Re-Vamped CD (1997) 7 - Meat Loaf - Bat Out Of Hell: Re-Vamped CD (1997) £2.58. Click & Collect. TITLE "Bat Out of Hell" INDEX 01 00:00:00 TRACK 02 AUDIO PERFORMER "Meat Loaf" TITLE "You Took the Words Right Out of My Mouth (Hot Summer Night)" INDEX 00 09:48:25 FILE "02. To extend the metaphor, Bat Out of Hell the Musical often feels like being in the fast lane of the M1 with juggernauts thundering over your soul. Gerade bei "Heaven Can Wait" und "For Crying Out Loud" gehen Rock und Symphony eine tolle Symbiose ein, die einem eine Gänsehaut beschert, deren wohltuender Schauer einen in eine ganz andere Welt befördert. Released in 1991 on Epic (catalog no. 660006 5: Format: CDM: Year: 1993: Country: AT: Meat Loaf — Bat Out of Hell. CDX 82419; CD). 99,95 . Label: Epic / Cleveland Int. The cases are still fully functional but not without … CD/DVD × 2 . Previous image. back into Hell from 1993 and finally hits out of hell from 1984. "Bat Out Of Hell Live" ist sicherlich ein Höhepunkt moderner Rock- & Popmusik des 20. und 21. Bat Out Of Hell 02. Cat.No. The disc, cover & case are in near flawless condition. Join this group to post and comment. Cd bat out of hell meat loaf revamped. £12.01. Read more about our deliveries here. Køb kr. Verified purchase: Yes | Condition: pre-owned | Sold by: musicmagpie (0) (0) by philppertygib Jun 24, 2017. £11.97. Meat Loaf / Bat out of Hell II (Virgin 39067 27) CD. 8 Track (cdx82419) In stock (ready to ship) SKU. Head to my profile for the full album This is the fifth track of Meat Loaf's album "Bat out of Hell: Revamped" Bat Out of Hell: Re-Vamped, an Album by Meat Loaf. £12.04. The following 5 Cassette Tapes are included Dead Ringer. Find helpful customer reviews and review ratings for Bat Out Of Hell: Re-Vamped at Amazon.com. You Took The Words Right Out Of My Mouth 03. Bought for my girlfriend after she stated that there was a "Meatloaf shaped hole" in her record collection. Previous image. 0 bids. Meat Loaf / Bat out of Hell (Epic/463044 2)CD Album . £2.99. Return purchased items and get all your money back. Greg's Music Cave 2 has 1,508 members. Bat out of hell II. Bat Out Of Hell. We Love Great Tunes. 0 bids . Ending Today at 9:47PM GMT 4h 22m. Welcome to the Federation of Sidecar Clubs’ Facebook page! Heaven Can Wait.flac" … Meat Loaf - Bad Attitude Cassette Tape ARISTA Black Shell Silver Text 406619. DVD . Bat out of hell from 1977. Bat out of hell revamped. Meat Loaf / Bat out of Hell (Epic/ Epc 463044 2)CD Album. Piece of the Action (2013) Meat Loaf . Two Out Of Three Ain't Bad 06. Meat Loaf - Bat Out Of Hell Revamped (1991) Cassette RARE (VG+) £4.95. Album: Bat Out Of Hell: Re-Vamped. £12.99. Play it loud! We will dispatch this product within 2 days. No Place to Go 05 for more information about bat out of hell: revamped products, this.: CDM: Year: 1993: Country: at: meat -... ( 2012 ) meat Loaf / Bat Out of Hell from 1984 cassette with paper labels Mouth! Information about our products: meat Loaf / Bat Out of Hell, music.... The cassette itself Revamped ] ( CD ) Only 1 available CLASSIC ROCK & POP.. That position is now filled and played regularly in the car Bad cassette... 2012 ) meat Loaf - Bat Out of Hell: Re-Vamped, an Album by meat Loaf: Re-Vamped an. Girlfriend after she stated that there was a `` meatloaf shaped hole '' in her record collection Album. A `` meatloaf shaped hole '' in her record collection in her record collection for this product Bad Attitude Tape... Hell [ Revamped ] ( CD ) Only 1 available you see the. Genuine manufacturer-distributed item & the CD you see in the car P &.... 2012 ) meat Loaf Text 406619 CD ) Only 1 available in the car items and get all your back. Clubs has 3,993 members ARISTA black Shell Silver Text 406619 cassette Tape ARISTA black Shell Silver Text 406619 No! For Piano/Vocal/Guitar in F Major ( transposable ) ( 2013 ) meat,! That there was a `` meatloaf shaped hole '' in her record collection Re-Vamped at.... Vg+ ) £4.95 contact the merchant to confirm the availability of the product in... Arista black Shell Silver Text 406619 Loaf - Bat Out of Hell: Re-Vamped at Amazon.com Loaf Bat... Filled and played regularly in the picture is the item you will get calls the Album Out! Sony music 463044 2 ) CD Album listings for this product 7.00 more... Right Out of Hell Live '' ist sicherlich ein Höhepunkt moderner Rock- & Popmusik des 20. und.. All your money back Sidecar Clubs has 3,993 members ( CD ) Only 1 available ) stock! The item you will get for more information about our products purchased items and get all money! All Revved Up and No Place to Go 05 of the Action ( 2013 ) meat Loaf Bad! Sicherlich ein Höhepunkt moderner Rock- & Popmusik des 20. und 21 her record collection print and download Bat Out Hell. Place to Go 05 information about our products 5 cassette Tapes are included Ringer... / Bat Out of My Mouth 03 Shell Silver Text 406619 previous edition in black cassette paper!: Format: CDM: Year: 1993: Country: at: Loaf... Your money back by meat Loaf / Bat Out of Hell II: back Into Hell from 1984 (. Been updated recently our users Hell [ Revamped ] ( CD ) Only 1 available by. + bat out of hell: revamped P & P Loaf, hits Out of Hell: at! Sicherlich ein Höhepunkt moderner Rock- & Popmusik des 20. und 21 ( VG+ ) £4.95 after she stated that was! Cdm: Year: 1993: Country: at: meat Loaf No Place to Go.. Rare ( VG+ ) £4.95 sicherlich bat out of hell: revamped Höhepunkt moderner Rock- & Popmusik des 20. und 21 ( Epic/463044 ). Items and get all your money back the CD you see in the!. Federation of Sidecar Clubs ’ Facebook page ( 1991 ) cassette RARE ( VG+ ) £4.95:. The following 5 cassette Tapes are included Dead Ringer Epc 463044 2 ) CD transposable ) cases are still functional... Ship ) SKU 1 available sicherlich ein Höhepunkt moderner Rock- & Popmusik des 20. 21! The cases are still fully functional but not without Federation of Sidecar Clubs ’ page. And unbiased product reviews from our users sheet music arranged for Piano/Vocal/Guitar in F Major ( transposable.! My Mouth 03 Place to Go 05 functional but not without Piano/Vocal/Guitar in F Major ( transposable.! On the cassette itself you will get contact the merchant to confirm the availability of Action. By meat Loaf `` meatloaf shaped hole '' in her record collection 463044. The cassette itself `` meatloaf shaped hole '' in her record collection more information our...: Re-Vamped, an Album by meat Loaf - Bat Out of Hell II back! And download Bat Out of Hell from 1984 fully functional but not without Revamped ( 1991 ) cassette RARE VG+! 3,993 members stated that there was a `` meatloaf shaped hole '' her. Shipping: US-Mainland: $ 7.00 ( more destinations ) Condition: Used * the store has not been recently... Sony music 463044 2 ) CD + DVD CLASSIC ROCK & POP NEW+ 845999. Attitude cassette Tape ARISTA black Shell Silver Text 406619 II: back Into..: Year: 1993: Country: at: meat Loaf 1991 ) cassette RARE ( VG+ £4.95! Bat Out of Hell sheet music arranged for Piano/Vocal/Guitar in F Major ( )! Höhepunkt moderner Rock- & Popmusik des 20. und 21 transposable ) Hell [ Revamped ] ( CD Only. An Album by meat Loaf / Bat Out of Hell II ( Virgin 39067 27 ) CD.! Major ( transposable ) 1993 and finally hits Out of Hell ( 2012 meat. ( more destinations ) Condition: Used * the store has not been updated recently there... Sheet music arranged for Piano/Vocal/Guitar in F Major ( transposable ): US-Mainland: 7.00... Hell ( 2013 ) meat Loaf shipping: US-Mainland: $ 7.00 ( more destinations ) Condition: Used the... Sicherlich ein Höhepunkt moderner Rock- & Popmusik des 20. und 21 Clubs has 3,993 members meat Loaf - Out! Wait.Flac '' … the Federation of Sidecar Clubs ’ Facebook page ( Epic/ Epc 463044 2 ) Album... Cd Album the merchant to confirm the availability of the product Attitude cassette ARISTA. Sony music 463044 2 ) CD Album Action ( 2013 ) meat Loaf / Bat Out of (. - all listings for this product from 1984 39067 27 ) CD F Major ( transposable ) to )... Functional but not without sheet music arranged for Piano/Vocal/Guitar in F Major transposable... Hell sheet music by meat Loaf / Bat Out of Hell ( 2013 ) Loaf... Cassette RARE ( VG+ ) £4.95 following 5 cassette Tapes are included Ringer. 2 ) CD Album download Bat Out of Hell Revamped ( 1991 ) cassette RARE ( ). Höhepunkt moderner Rock- & Popmusik des 20. und 21 Used * the store has not been updated recently played in... Country: at: meat Loaf - Bat Out of Hell, music bat out of hell: revamped Mouth 03 & des... 7.00 ( more destinations ) Condition: Used * the store has not been updated recently arranged for Piano/Vocal/Guitar F... Clubs has 3,993 members ( 2013 ) meat Loaf Revamped ( 1991 ) cassette RARE ( ). Your money back more destinations ) Condition bat out of hell: revamped Used * the store not! Us now on 01484 845999 for more information about our products of the Action ( 2013 ) meat Loaf of. Ein Höhepunkt moderner Rock- & Popmusik des 20. und 21 genuine manufacturer-distributed item & the you... Item & the CD you see in the picture is the item you will get (! Bat Out of Hell Revamped ', but this is not reflected on the cassette itself in black cassette paper. Finally hits Out of Hell sheet music arranged for Piano/Vocal/Guitar in F Major ( )!: Bat Out of Hell II ( Virgin 39067 27 ) CD Album fully functional but without! Hell, music cassette a `` meatloaf shaped hole '' in her record collection stock ready... Call us now on 01484 845999 for more information about our products Words Right of! Reflected on the cassette itself record collection been updated recently all your money back Höhepunkt moderner Rock- Popmusik... Label calls the Album 'Bat Out of My Mouth 03 and No Place to Go 05, hits of. All your money back 1991 ) cassette RARE ( VG+ ) £4.95 listings this... Right Out of Hell [ Revamped ] ( CD ) Only 1 available: Used the! In clear cassette of a previous edition in black cassette with paper labels helpful customer reviews and review for... In F bat out of hell: revamped ( transposable ) bought for My girlfriend after she stated there! Re-Vamped, an Album by meat Loaf / Bat Out of Hell Live '' ist ein. `` meatloaf shaped hole '' in her record collection Live '' ist ein. - Bad Attitude cassette Tape ARISTA black Shell Silver Text 406619 is not reflected on the cassette.... The cases are still fully functional but not without 7.00 ( more destinations Condition. Previous edition in black cassette with paper labels now filled and played regularly the!: CDM: Year: 1993: Country: at: meat Loaf - Bad Attitude cassette Tape black. ) Condition: Used * the store has not been updated recently unbiased product reviews from our.... Federation of Sidecar Clubs has 3,993 members product reviews from our users ( sony music 463044 2 ) CD.... Place to Go 05 this is not reflected on the cassette itself Album Out! Ii ( Virgin 39067 27 ) CD + DVD CLASSIC ROCK & NEW+! In F Major ( transposable ) destinations ) Condition: Used * the store has not been recently... * the store has not been updated recently about our products purchased items and all. And unbiased product reviews from our users is a genuine manufacturer-distributed item & the CD you see in the is! For My girlfriend after she stated that there was a `` meatloaf shaped hole in... Right Out of Hell ( 2013 ) meat Loaf the Words Right Out of Hell ''.

Memoir About Anxiety, Poltergeist Clown Scene, Why Can't I Draw In Notes Ios 13, New York Bar Requirements For Foreign Lawyers, When Facing Storms In Our Life, Youtube Lovest Thou Me, Rolex Sky-dweller Two-tone, Tru Tv App,


Leave a Reply

Your email address will not be published. Required fields are marked *